#TITLE:Promiscuous Girl;
#SUBTITLE:;
#ARTIST:Nelly Furtado ft Timbaland;
#TITLETRANSLIT:Promiscuous Girl;
#SUBTITLETRANSLIT:;
#ARTISTTRANSLIT:Nelly Furtado ft Timbaland;
#CREDIT:;
#BANNER:Promiscuous Girl-bn.png;
#BACKGROUND:Promiscuous Girl-bg.png;
#LYRICSPATH:;
#CDTITLE:pm4cd.png;
#MUSIC:Promiscuous Girl.mp3;
#OFFSET:-0.080;
#SAMPLESTART:37.260;
#SAMPLELENGTH:20.000;
#SELECTABLE:YES;
#BPMS:0.000=114.310,161.000=81.750,161.500=114.310,177.500=84.710,180.500=114.310,276.500=228.630,278.500=114.310,309.500=85.810,312.500=114.310;
#STOPS:;
#BGCHANGES:;
// cache tags:
#FIRSTBEAT:5.500;
#LASTBEAT:448.500;
#SONGFILENAME:Songs/Music V.I.P ^_^/Promiscuous Girl/Promiscuous Girl.sm;
#HASMUSIC:1;
#HASBANNER:1;
#MUSICLENGTH:244.434;
// end cache tags

//---------------dance-single - ----------------
#NOTES:
     dance-single:
     :
     Hard:
     12:
     1.000,1.000,1.000,0.266,0.951,1341.000,619.000,65.000,0.000,258.000:
0000
0000
0000
0000
,
0000
0000
0000
1110
0001
0010
1100
0010
,
1001
0010
1100
0010
1001
0010
1101
0000
1000
0000
0100
0000
0011
0000
0100
0000
,
1010
0001
0110
1000
0101
0010
1101
0000
0010
0000
0100
0000
0011
0000
0100
0000
,
0011
0100
1010
0100
0011
0100
1011
0000
0100
0000
0001
0000
0110
0000
1000
0000
,
0101
0010
1100
0010
0101
1000
0111
0000
1000
0000
0100
0000
1001
0000
0010
0000
,
1100
0010
0101
0010
1100
0010
1101
0000
0010
0000
0100
0000
1010
0000
0100
0000
,
0011
0100
0011
0100
1010
0001
1110
0000
0001
0000
0100
0000
1010
0000
0001
0000
,
1100
0010
0101
0010
0101
1000
0111
0000
1000
0000
0001
0000
1010
0000
0100
0000
,
1001
0010
1100
0010
0101
0010
1101
0000
0010
0000
0100
0000
1001
0000
0010
0000
,
1100
0010
0101
0010
1100
0001
1110
0000
1000
0000
0001
0000
1100
0000
0010
0000
,
1001
0100
1010
0100
0011
1000
0111
0000
1000
0000
0010
0000
0101
0000
0010
0000
,
0101
0010
1100
0010
0101
1000
0111
0000
0010
0000
0100
0000
0011
0000
0100
0000
,
1010
0100
0011
0100
1001
0010
1102
0000
0010
0000
0100
0000
1010
0003
0100
0000
,
0011
0100
1010
0100
1001
0100
1011
0000
0100
0000
0001
0000
0110
0000
1000
0000
,
0101
0010
1100
0010
0101
0010
1101
0000
0010
0000
0001
0000
1010
0000
0100
0000
,
1001
0010
0101
1000
0011
0100
1011
0000
0100
0000
1000
0000
0101
0000
0010
0000
,
0101
1000
0110
0001
1010
0001
2110
0000
0001
0000
0100
0000
0011
0000
0100
0000
,
0011
3100
1001
0100
1010
0001
1210
0000
0001
0000
1000
0000
0011
0000
0010
0000
,
1001
0310
0101
0010
1100
0010
1102
0000
0010
0000
1000
0000
0110
0000
1000
0000
,
1100
0013
0101
0010
1100
0001
1120
0000
0001
0000
0100
0000
1001
0000
0100
0000
,
0101
1030
0110
0001
1100
0010
2101
0000
0010
0000
0100
0000
0011
0000
0100
0000
,
0101
3010
1001
0100
0011
1000
0112
0000
1000
0000
0010
0000
1100
0000
0010
0000
,
1100
0013
0101
0010
1100
0001
1210
0000
0001
0000
0010
0000
1001
0000
0010
0000
,
1001
0310
0101
0010
1100
0010
1102
0000
0010
0000
1000
0000
0110
0000
1000
0000
,
1100
0013
1001
0100
0011
1000
0211
0000
1000
0000
0001
0000
1010
0000
0001
0000
,
0011
1300
0011
1000
0101
1000
0121
0000
1000
0000
0100
0000
1001
0000
0100
0000
,
0101
1030
0110
0001
1100
0010
2101
0000
0010
0000
0001
0000
0110
0000
0001
0000
,
0011
3100
1001
0010
0101
1000
0112
0000
1000
0000
0100
0000
1010
0000
0100
0000
,
0110
1003
0101
0010
1100
0001
1120
0000
0001
0000
0100
0000
1001
0000
0100
0000
,
1100
0031
0110
0001
1010
0100
2011
0000
0100
0000
0001
0000
0110
0000
0001
0000
,
0101
3010
1100
0001
0110
1000
0211
0000
1000
0000
0010
0000
1001
0000
0010
0000
,
0011
1300
0101
0010
1100
0001
1120
0000
0001
0000
1000
0000
0101
0000
1000
0000
,
1100
0031
0110
1000
0101
0010
1101
0010
0001
0010
0100
1000
0101
0010
0001
0010
,
1100
0010
1001
0100
0011
1000
0111
1000
0010
0100
1000
0100
0011
0100
0010
1000
,
0101
0010
1100
0010
0101
0010
1101
0010
0100
0001
0010
1000
0101
0010
0100
0001
,
1100
0010
1001
0100
1010
0100
1011
0100
0001
0010
1000
0100
0011
0100
1000
0010
,
1001
0100
0011
0100
1010
0001
1110
0001
0100
0010
1000
0010
1100
0001
0100
0010
,
1001
0100
0011
0100
1010
0100
1011
0100
0010
1000
0010
0100
0011
1000
0100
0001
,
0110
0001
0001
1000
0100
1000
0111
1000
0010
0100
0001
0010
0101
0010
1000
0100
,
1001
0010
1000
0200
0000
0000
1311
0100
0010
0001
0010
0100
1001
0010
0100
0010
,
1100
0010
0101
0010
1100
0001
1110
0001
0100
0010
1000
0100
1010
0100
0010
1000
,
0101
0010
1001
0100
0011
0100
1011
0100
1000
0100
0001
0010
1100
0010
0001
0100
,
1010
0100
0011
1000
0101
0010
1101
0010
1000
0100
0001
0010
0101
0010
1000
0100
,
0011
0000
0000
0100
0000
0000
1010
0000
0000
0100
0000
0000
1001
0000
0000
0010
0000
0000
0201
0000
0010
0000
1000
0000
0010
0000
0001
0000
0000
0000
1010
0000
0001
0000
0010
0000
0001
0000
1000
0000
0010
0000
1302
0000
0010
0000
0100
0000
,
1000
0000
0000
0000
0000
0000
0000
0000
0010
0000
0000
0000
0000
0000
0000
0000
0000
0000
1100
0000
0000
0000
0000
0000
0003
0000
0000
0000
0000
0000
0000
0000
0000
0000
0000
0000
0100
0000
0000
0000
0000
0000
0000
0000
0000
0000
0000
0000
0010
0000
0000
0000
0000
0000
0000
0000
0000
0000
0000
0000
0100
0000
0000
0000
0000
0000
0000
0000
0000
0000
0000
0000
1000
0000
0000
0000
0000
0000
0000
0000
0000
0000
0000
0000
0100
0000
0000
0000
0000
0000
0000
0000
0000
0000
0000
0000
1010
0000
0000
0000
0000
0000
0000
0000
0000
0000
0000
0000
0001
0000
0000
0000
0000
0000
0000
0000
0000
0000
0000
0000
0010
0000
0000
0000
0000
0000
0000
0000
0000
0000
0000
0000
0100
0000
0000
0000
0000
0000
0000
0000
0000
0000
0000
0000
1001
0000
0000
0000
0000
0000
0000
0000
0000
0000
0000
0000
0010
0000
0000
0000
0000
0000
0000
0000
0000
0000
0000
0000
1100
0000
0000
0000
0000
0000
0000
0000
0000
0000
0000
0000
0010
0000
0000
0000
0000
0000
0000
0000
0000
0000
0000
0000
,
0101
0010
1101
0010
0001
1000
0010
1000
0011
1000
0001
0100
1001
0010
1100
0010
,
0101
0010
1101
0010
1000
0001
0100
1000
0101
0010
0001
1000
0011
0100
1010
0100
,
1001
0100
1011
0100
0001
0010
0100
0001
1010
0100
0010
0001
0110
1000
0101
0010
,
1100
0010
1102
0000
0010
0000
1000
0000
0110
0000
1000
0000
1100
0013
0101
0010
,
1100
0010
1201
0000
0010
0000
0001
0000
1010
0000
1000
0000
0011
1300
0101
0010
,
1100
0001
1120
0000
0001
0000
1000
0000
1100
0000
0100
0000
0101
1030
0110
0001
,
1010
0100
2011
0000
0100
0000
0001
0000
0110
0000
0001
0000
0101
3010
1100
0001
,
0110
1000
0121
0000
1000
0000
0100
0000
1001
0000
0100
0000
1100
0031
0110
1000
,
0101
0010
1201
0000
0010
0000
0001
0000
1010
0000
0001
0000
0011
1300
0101
0010
,
1100
0010
1102
0000
0010
0000
1000
0000
0110
0000
1000
0000
1010
0103
0011
0100
,
1001
0100
1021
0000
0100
0000
0001
0000
1100
0000
1000
0000
1031
0100
1010
0100
,
0011
0100
2011
0000
0100
0000
0001
0000
0110
0000
0001
0000
0101
3010
1100
0010
,
1001
0100
1012
0000
0100
0000
0010
0000
1100
0000
1000
0000
0110
1003
0101
0010
,
1100
0001
1210
0000
0001
0000
0010
0000
1001
0000
1000
0000
1010
0301
0110
1000
,
0101
0010
1102
0000
0010
0000
0100
0000
1010
0000
0100
0000
1100
0013
0101
0010
,
1100
0010
2101
0000
0010
0000
0100
0000
0011
0000
0100
0000
0101
3010
1001
0100
,
0011
0100
1012
0000
0100
0000
0010
0000
1100
0000
0010
0000
1010
0103
0011
0100
,
1001
0010
2101
0000
0010
0000
0001
0000
0110
0000
0001
0000
0101
3010
1001
0010
,
1100
0001
1210
0000
0001
0000
0010
0000
1001
0000
1000
0000
0011
1300
0101
0010
,
1001
0100
1011
0100
0010
0001
1000
0100
1010
0001
0100
0010
1100
0010
1001
0010
,
0101
1000
0111
1000
0001
0010
1000
0010
0101
0010
0001
0010
1100
0010
1001
0100
,
1010
0100
1011
0100
0001
0010
0001
1000
0110
0001
1000
0010
1001
0100
0011
0100
,
1010
0100
1011
0100
0001
0010
1000
0100
0011
0100
1000
0010
0101
0010
1100
0001
,
0110
1000
0200
0000
0000
0000
0000
0000
0000
0000
0311
0000
1000
0010
0100
0010
,
1001
0010
1100
0001
0110
1000
0111
1000
0100
0001
0010
1000
0101
1000
0010
0001
,
1100
0010
1001
0100
0011
0100
1011
0000
0100
0000
0001
0000
0110
0000
0001
0000
,
1010
0100
0011
0100
1001
0010
1101
0000
0010
0000
1000
0000
0101
0000
0010
0000
,
1001
0100
0011
0100
1010
0001
2000
0000
0100
0000
0001
3000
0110
0000
0001
0000
,
1010
0001
0110
1000
0101
0010
1101
0010
0100
1000
0100
0010
1001
0010
0100
1000
,
0101
0010
1100
0001
0110
1000
0111
1000
0001
1000
0010
0100
0011
1000
0010
0001
,
0110
1000
0101
0010
1100
0001
1110
0001
0100
0010
1000
0100
1010
0001
0100
0010
,
0101
0000
0010
0000
1100
0000
0001
0000
0110
0000
1000
0000
0020
0000
0000
1000
0000
0000
0100
0000
0000
0001
0000
0000
0001
0000
0000
0100
0000
0000
1000
0000
,
0000
0000
0131
1000
0001
0100
0001
1000
0110
0001
1000
0100
0011
0100
1020
0100
,
1001
0130
1011
0100
0001
1000
0010
0100
1001
0010
0001
0100
1010
0100
0011
1000
,
0101
0010
1101
0000
0010
0000
1000
0000
0101
0000
0010
0000
1001
0010
0101
1000
,
0011
0100
1012
0000
1000
0000
0100
0000
1010
0000
1000
0000
0110
1003
0011
0100
,
1010
0100
1021
0000
1000
0000
0100
0000
0101
0000
1000
0000
1100
0031
0110
0001
,
1010
0100
2011
0000
0100
0000
0001
0000
0110
0000
0001
0000
0011
3100
1010
0001
,
0110
0001
1210
0000
0001
0000
0010
0000
1010
0000
1000
0000
1001
0310
0101
1000
,
0011
1000
0112
0000
1000
0000
0100
0000
1010
0000
1000
0000
0110
1003
0101
0010
,
1100
0001
2110
0000
0001
0000
0100
0000
0011
0000
0100
0000
0101
3010
1100
0001
,
0110
1000
0211
0000
1000
0000
0001
0000
1010
0000
0001
0000
1010
0301
0110
1000
,
0101
0010
1102
0000
0010
0000
0100
0000
1010
0000
0100
0000
1100
0013
0101
0010
,
1100
0001
1120
0000
0001
0000
1000
0000
0101
0000
1000
0000
1100
0031
1010
0001
,
0110
1000
0211
0000
1000
0000
0001
0000
0011
0000
0010
0000
1010
0301
1100
0010
,
0101
0010
1102
0000
0100
0000
1000
0000
1010
0000
0100
0000
1100
0013
0101
0010
,
1100
0001
2110
0000
0001
0000
0100
0000
0011
0000
0100
0000
0110
3001
1010
0100
,
1001
0010
1201
0000
0010
0000
1000
0000
1001
0000
0010
0000
1001
0310
1100
0001
,
0110
1000
0121
0000
1000
0000
0100
0000
1001
0000
1000
0000
0101
1030
0011
0100
,
1010
0100
1021
0000
0100
0000
1000
0000
1100
0000
0100
0000
0101
1030
0011
0100
,
1001
0010
1102
0000
0010
0000
1000
0000
1010
0000
0100
0000
0110
1003
0101
0010
,
1100
0001
1110
0000
0011
0000
0110
0000
1100
0000
0101
0000
0011
1100
1010
0101
,
0110
1001
0111
0000
0101
0000
0110
0000
1001
0000
1100
0000
0110
1001
1100
1010
,
0101
0110
1101
0000
0101
0000
1010
0000
1001
0000
0101
0000
0011
0110
1100
1010
,
1001
0101
1011
0000
1001
0000
0110
0000
1100
0000
0011
0000
0110
1001
1100
0110
,
0011
1001
1110
0000
1001
0000
0011
0000
0110
0000
1100
0000
1001
0101
0011
1100
,
0110
0011
1101
0000
0011
0000
1100
0000
0101
0000
1010
0000
1001
1010
1100
0011
,
0110
1100
2011
0000
0110
0000
0101
0000
0011
0000
0110
0000
0011
3110
1001
0101
,
1010
0110
1210
0000
1001
0000
1010
0000
0011
0000
1001
0000
0011
1301
1010
0110
,
0011
1001
0121
0000
1100
0000
0101
0000
1001
0000
0101
0000
1100
0131
1010
0101
,
0011
1001
1102
0000
1010
0000
1110
0000
1100
0000
1110
0000
1010
0113
0101
0011
,
0110
1011
0121
1101
0000
0000
1101
1101
0000
0000
0101
0000
1101
0000
1100
0000
,
0101
0000
1132
0000
0110
0000
1100
0000
0110
0000
1010
0000
0110
1103
0101
1010
,
1001
0110
0211
0000
1010
0000
0011
0000
1001
0000
0011
0000
1010
0311
0110
0101
,
1001
1010
2101
0000
0011
0000
0110
0000
0101
0000
0011
0000
0110
3011
1001
1100
,
0110
1001
0112
0000
1000
0000
0010
0000
0100
0000
0010
0000
1000
0000
0100
0000
,
0010
0103
0000
0000
0000
0000
0000
0000
;

//---------------dance-single - ----------------
#NOTES:
     dance-single:
     :
     Medium:
     1:
     0.000,0.000,0.000,0.000,0.000,0.000,0.000,0.000,0.000,0.000:
0000
0000
0000
0000
;

//---------------dance-single - ----------------
#NOTES:
     dance-single:
     :
     Easy:
     1:
     0.000,0.000,0.000,0.000,0.000,0.000,0.000,0.000,0.000,0.000:
0000
0000
0000
0000
;
